请选择 进入手机版 | 继续访问电脑版
 立即注册 找回密码

QQ登录

只需一步,快速开始

思路生活网(Silubts.com)

站内搜索 搜索
查看: 3269|回复: 597

[720P] 旧墨西哥一夜A.Night.in.Old.Mexico.2013.720p.BluRay.x264.DD.5.1-RARBG

  [复制链接]

6003

主题

1

好友

6万

积分

监察版主

Rank: 14Rank: 14Rank: 14Rank: 14

思路币
27730
贡献
9262
声望
9621
在线时间
1125 小时
帖子
6003
积分
62237
UID
40577

推广达人 宣传达人 论坛支柱 突出贡献 优秀版主 荣誉管理 论坛元老

发表于 2014-7-13 12:29:57 |显示全部楼层



导演: 埃米利奥·阿拉贡
编剧: William D. Wittliff
主演: 罗伯特·杜瓦尔 / 杰瑞米·艾文 / 安吉·塞佩达
类型: 剧情
制片国家/地区: 美国
语言: 英语
上映日期: 2014-05-16
又名: 老墨西哥的一夜







简                介



              被迫放弃自己的土地和他唯一的家,脾气古怪的德克萨斯农场红博维是“T去静静地阴沉的拖车公园,都是他现在可以买得起,而不是去
  1. Video
  2. ID                                       : 1
  3. Format                                   : AVC
  4. Format/Info                              : Advanced Video Codec
  5. Format profile                           : High@L4.1
  6. Format settings, CABAC                   : Yes
  7. Format settings, ReFrames                : 4 frames
  8. Codec ID                                 : V_MPEG4/ISO/AVC
  9. Duration                                 : 1h 44mn
  10. Bit rate                                 : 5 147 Kbps
  11. Nominal bit rate                         : 5 500 Kbps
  12. Width                                    : 1 280 pixels
  13. Height                                   : 538 pixels
  14. Display aspect ratio                     : 2.40:1
  15. Frame rate mode                          : Constant
  16. Frame rate                               : 23.976 fps
  17. Color space                              : YUV
  18. Chroma subsampling                       : 4:2:0
  19. Bit depth                                : 8 bits
  20. Scan type                                : Progressive
  21. Bits/(Pixel*Frame)                       : 0.312
  22. Stream size                              : 3.74 GiB (90%)
  23. Title                                    : A.Night.in.Old.Mexico.2013.720p.BluRay.x264.DD.5.1-RARBG
  24. Writing library                          : x264 core 142 r2431 ac76440
  25. Default                                  : Yes
  26. Forced                                   : No
  27. Color primaries                          : BT.709
  28. Transfer characteristics                 : BT.709
  29. Matrix coefficients                      : BT.709

  30. Audio
  31. ID                                       : 2
  32. Format                                   : AC-3
  33. Format/Info                              : Audio Coding 3
  34. Mode extension                           : CM (complete main)
  35. Format settings, Endianness              : Big
  36. Codec ID                                 : A_AC3
  37. Duration                                 : 1h 44mn
  38. Bit rate mode                            : Constant
  39. Bit rate                                 : 448 Kbps
  40. Channel(s)                               : 6 channels
  41. Channel positions                        : Front: L C R, Side: L R, LFE
  42. Sampling rate                            : 48.0 KHz
  43. Bit depth                                : 16 bits
  44. Compression mode                         : Lossy
  45. Stream size                              : 333 MiB (8%)
  46. Title                                    : A.Night.in.Old.Mexico.2013.720p.BluRay.x264.DD.5.1-RARBG
  47. Language                                 : English
  48. Default                                  : Yes
  49. Forced                                   : No

  50. Menu
  51. 00:00:00.000                             : :Chapter 1
  52. 00:05:51.935                             : :Chapter 2
  53. 00:12:36.089                             : :Chapter 3
  54. 00:20:12.962                             : :Chapter 4
  55. 00:27:27.646                             : :Chapter 5
  56. 00:36:11.920                             : :Chapter 6
  57. 00:41:32.657                             : :Chapter 7
  58. 00:48:08.511                             : :Chapter 8
  59. 00:56:02.818                             : :Chapter 9
  60. 01:03:38.440                             : :Chapter 10
  61. 01:10:51.122                             : :Chapter 11
  62. 01:17:58.841                             : :Chapter 12
  63. 01:24:51.169                             : :Chapter 13
  64. 01:28:31.765                             : :Chapter 14
  65. 01:33:05.330                             : :Chapter 15
  66. 01:38:28.069                             : :Chapter 16
复制代码
Screens:














本帖子中包含更多资源

您需要 登录 才可以下载或查看,没有帐号?立即注册

回复

使用道具 举报

无效楼层,该帖已经被删除
无效楼层,该帖已经被删除
无效楼层,该帖已经被删除
5#
无效楼层,该帖已经被删除
6#
无效楼层,该帖已经被删除
7#
无效楼层,该帖已经被删除
8#
无效楼层,该帖已经被删除
9#
无效楼层,该帖已经被删除
10#
无效楼层,该帖已经被删除
您需要登录后才可以回帖 登录 | 立即注册

联系我们|Archiver|Silubts.com ( 蜀ICP备14002802号-5 )

GMT+8, 2017-8-17 17:47 , Processed in 0.517281 second(s), 30 queries .

Powered by 丝路生活 X2.5 Licensed

© 2009-2013 silubs.com 保留所有权利

回顶部